999
dxflib 2.0.4.8
  0
SECTION
  2
HEADER
  9
$ACADVER
  1
AC1015
  9
$HANDSEED
  5
FFFF
  9
$DIMASZ
 40
2.5
  9
$DIMGAP
 40
0.625
  9
$INSUNITS
 70
4
  9
$DIMEXO
 40
0.625
  9
$DIMTXT
 40
2.5
  9
$DIMSTYLE
  2
Standard
  9
$PLIMMIN
 10
0.0
 20
0.0
  9
$PLIMMAX
 10
210.0
 20
297.0
  9
$DIMEXE
 40
1.25
  9
$PINSBASE
 10
-170.0
 20
-41.5
 30
0.0
  0
ENDSEC
  0
SECTION
  2
TABLES
  0
TABLE
  2
VPORT
  5
8
100
AcDbSymbolTable
 70
1
  0
VPORT
  5
30
100
AcDbSymbolTableRecord
100
AcDbViewportTableRecord
  2
*Active
 70
0
 10
0.0
 20
0.0
 11
1.0
 21
1.0
 12
286.3055555555554861
 22
148.5
 13
0.0
 23
0.0
 14
10.0
 24
10.0
 15
10.0
 25
10.0
 16
0.0
 26
0.0
 36
1.0
 17
0.0
 27
0.0
 37
0.0
 40
297.0
 41
1.92798353909465
 42
50.0
 43
0.0
 44
0.0
 50
0.0
 51
0.0
 71
0
 72
100
 73
1
 74
3
 75
1
 76
1
 77
0
 78
0
281
0
 65
1
110
0.0
120
0.0
130
0.0
111
1.0
121
0.0
131
0.0
112
0.0
122
1.0
132
0.0
 79
0
146
0.0
  0
ENDTAB
  0
TABLE
  2
LTYPE
  5
5
100
AcDbSymbolTable
 70
21
  0
LTYPE
  5
14
100
AcDbSymbolTableRecord
100
AcDbLinetypeTableRecord
  2
ByBlock
 70
0
  3

 72
65
 73
0
 40
0.0
  0
LTYPE
  5
15
100
AcDbSymbolTableRecord
100
AcDbLinetypeTableRecord
  2
ByLayer
 70
0
  3

 72
65
 73
0
 40
0.0
  0
LTYPE
  5
16
100
AcDbSymbolTableRecord
100
AcDbLinetypeTableRecord
  2
CONTINUOUS
 70
0
  3
Solid line
 72
65
 73
0
 40
0.0
  0
LTYPE
  5
31
100
AcDbSymbolTableRecord
100
AcDbLinetypeTableRecord
  2
DOT
 70
0
  3
Dot . . . . . . . . . . . . . . . . . . . . . .
 72
65
 73
2
 40
6.3499999999999996
 49
0.0
 74
0
 49
-6.3499999999999996
 74
0
  0
LTYPE
  5
32
100
AcDbSymbolTableRecord
100
AcDbLinetypeTableRecord
  2
DOT2
 70
0
  3
Dot (.5x) .....................................
 72
65
 73
2
 40
3.1749999999999998
 49
0.0
 74
0
 49
-3.1749999999999998
 74
0
  0
LTYPE
  5
33
100
AcDbSymbolTableRecord
100
AcDbLinetypeTableRecord
  2
DOTX2
 70
0
  3
Dot (2x) .  .  .  .  .  .  .  .  .  .  .  .  .
 72
65
 73
2
 40
12.6999999999999993
 49
0.0
 74
0
 49
-12.6999999999999993
 74
0
  0
LTYPE
  5
34
100
AcDbSymbolTableRecord
100
AcDbLinetypeTableRecord
  2
DASHED
 70
0
  3
Dashed __ __ __ __ __ __ __ __ __ __ __ __ __ _
 72
65
 73
2
 40
19.0500000000000007
 49
12.6999999999999993
 74
0
 49
-6.3499999999999996
 74
0
  0
LTYPE
  5
35
100
AcDbSymbolTableRecord
100
AcDbLinetypeTableRecord
  2
DASHED2
 70
0
  3
Dashed (.5x) _ _ _ _ _ _ _ _ _ _ _ _ _ _ _ _ _
 72
65
 73
2
 40
9.5250000000000004
 49
6.3499999999999996
 74
0
 49
-3.1749999999999998
 74
0
  0
LTYPE
  5
36
100
AcDbSymbolTableRecord
100
AcDbLinetypeTableRecord
  2
DASHEDX2
 70
0
  3
Dashed (2x) ____  ____  ____  ____  ____  ___
 72
65
 73
2
 40
38.1000000000000014
 49
25.3999999999999986
 74
0
 49
-12.6999999999999993
 74
0
  0
LTYPE
  5
37
100
AcDbSymbolTableRecord
100
AcDbLinetypeTableRecord
  2
DASHDOT
 70
0
  3
Dash dot __ . __ . __ . __ . __ . __ . __ . __
 72
65
 73
4
 40
25.3999999999999986
 49
12.6999999999999993
 74
0
 49
-6.3499999999999996
 74
0
 49
0.0
 74
0
 49
-6.3499999999999996
 74
0
  0
LTYPE
  5
38
100
AcDbSymbolTableRecord
100
AcDbLinetypeTableRecord
  2
DASHDOT2
 70
0
  3
Dash dot (.5x) _._._._._._._._._._._._._._._.
 72
65
 73
4
 40
12.6999999999999993
 49
6.3499999999999996
 74
0
 49
-3.1749999999999998
 74
0
 49
0.0
 74
0
 49
-3.1749999999999998
 74
0
  0
LTYPE
  5
39
100
AcDbSymbolTableRecord
100
AcDbLinetypeTableRecord
  2
DASHDOTX2
 70
0
  3
Dash dot (2x) ____  .  ____  .  ____  .  ___
 72
65
 73
4
 40
50.7999999999999972
 49
25.3999999999999986
 74
0
 49
-12.6999999999999993
 74
0
 49
0.0
 74
0
 49
-12.6999999999999993
 74
0
  0
LTYPE
  5
3A
100
AcDbSymbolTableRecord
100
AcDbLinetypeTableRecord
  2
DIVIDE
 70
0
  3
Divide ____ . . ____ . . ____ . . ____ . . ____
 72
65
 73
6
 40
31.75
 49
12.6999999999999993
 74
0
 49
-6.3499999999999996
 74
0
 49
0.0
 74
0
 49
-6.3499999999999996
 74
0
 49
0.0
 74
0
 49
-6.3499999999999996
 74
0
  0
LTYPE
  5
3B
100
AcDbSymbolTableRecord
100
AcDbLinetypeTableRecord
  2
DIVIDE2
 70
0
  3
Divide (.5x) __..__..__..__..__..__..__..__.._
 72
65
 73
6
 40
15.875
 49
6.3499999999999996
 74
0
 49
-3.1749999999999998
 74
0
 49
0.0
 74
0
 49
-3.1749999999999998
 74
0
 49
0.0
 74
0
 49
-3.1749999999999998
 74
0
  0
LTYPE
  5
3C
100
AcDbSymbolTableRecord
100
AcDbLinetypeTableRecord
  2
DIVIDEX2
 70
0
  3
Divide (2x) ________  .  .  ________  .  .  _
 72
65
 73
6
 40
63.5
 49
25.3999999999999986
 74
0
 49
-12.6999999999999993
 74
0
 49
0.0
 74
0
 49
-12.6999999999999993
 74
0
 49
0.0
 74
0
 49
-12.6999999999999993
 74
0
  0
LTYPE
  5
3D
100
AcDbSymbolTableRecord
100
AcDbLinetypeTableRecord
  2
CENTER
 70
0
  3
Center ____ _ ____ _ ____ _ ____ _ ____ _ ____
 72
65
 73
4
 40
50.7999999999999972
 49
31.75
 74
0
 49
-6.3499999999999996
 74
0
 49
6.3499999999999996
 74
0
 49
-6.3499999999999996
 74
0
  0
LTYPE
  5
3E
100
AcDbSymbolTableRecord
100
AcDbLinetypeTableRecord
  2
CENTER2
 70
0
  3
Center (.5x) ___ _ ___ _ ___ _ ___ _ ___ _ ___
 72
65
 73
4
 40
28.5749999999999993
 49
19.0500000000000007
 74
0
 49
-3.1749999999999998
 74
0
 49
3.1749999999999998
 74
0
 49
-3.1749999999999998
 74
0
  0
LTYPE
  5
3F
100
AcDbSymbolTableRecord
100
AcDbLinetypeTableRecord
  2
CENTERX2
 70
0
  3
Center (2x) ________  __  ________  __  _____
 72
65
 73
4
 40
101.5999999999999943
 49
63.5
 74
0
 49
-12.6999999999999993
 74
0
 49
12.6999999999999993
 74
0
 49
-12.6999999999999993
 74
0
  0
LTYPE
  5
40
100
AcDbSymbolTableRecord
100
AcDbLinetypeTableRecord
  2
BORDER
 70
0
  3
Border __ __ . __ __ . __ __ . __ __ . __ __ .
 72
65
 73
6
 40
44.4500000000000028
 49
12.6999999999999993
 74
0
 49
-6.3499999999999996
 74
0
 49
12.6999999999999993
 74
0
 49
-6.3499999999999996
 74
0
 49
0.0
 74
0
 49
-6.3499999999999996
 74
0
  0
LTYPE
  5
41
100
AcDbSymbolTableRecord
100
AcDbLinetypeTableRecord
  2
BORDER2
 70
0
  3
Border (.5x) __.__.__.__.__.__.__.__.__.__.__.
 72
65
 73
6
 40
22.2250000000000014
 49
6.3499999999999996
 74
0
 49
-3.1749999999999998
 74
0
 49
6.3499999999999996
 74
0
 49
-3.1749999999999998
 74
0
 49
0.0
 74
0
 49
-3.1749999999999998
 74
0
  0
LTYPE
  5
42
100
AcDbSymbolTableRecord
100
AcDbLinetypeTableRecord
  2
BORDERX2
 70
0
  3
Border (2x) ____  ____  .  ____  ____  .  ___
 72
65
 73
6
 40
88.9000000000000057
 49
25.3999999999999986
 74
0
 49
-12.6999999999999993
 74
0
 49
25.3999999999999986
 74
0
 49
-12.6999999999999993
 74
0
 49
0.0
 74
0
 49
-12.6999999999999993
 74
0
  0
ENDTAB
  0
TABLE
  2
LAYER
  5
2
100
AcDbSymbolTable
 70
5
  0
LAYER
  5
10
100
AcDbSymbolTableRecord
100
AcDbLayerTableRecord
  2
0
 70
0
 62
7
  6
CONTINUOUS
370
25
390
F
  0
LAYER
  5
43
100
AcDbSymbolTableRecord
100
AcDbLayerTableRecord
  2
hidden
 70
0
 62
7
  6
DASHED
370
18
390
F
  0
LAYER
  5
44
100
AcDbSymbolTableRecord
100
AcDbLayerTableRecord
  2
center
 70
0
 62
7
  6
DASHDOT
370
13
390
F
  0
LAYER
  5
45
100
AcDbSymbolTableRecord
100
AcDbLayerTableRecord
  2
dimensions
 70
0
 62
7
  6
CONTINUOUS
370
13
390
F
  0
LAYER
  5
46
100
AcDbSymbolTableRecord
100
AcDbLayerTableRecord
  2
ghost
 70
0
 62
7
  6
DIVIDE
370
18
390
F
  0
ENDTAB
  0
TABLE
  2
STYLE
  5
3
100
AcDbSymbolTable
 70
1
  0
STYLE
  5
11
100
AcDbSymbolTableRecord
100
AcDbTextStyleTableRecord
  2
Standard
 70
0
 40
0.0
 41
0.75
 50
0.0
 71
0
 42
2.5
  3
txt
  4

  0
ENDTAB
  0
TABLE
  2
VIEW
  5
6
100
AcDbSymbolTable
 70
0
  0
ENDTAB
  0
TABLE
  2
UCS
  5
7
100
AcDbSymbolTable
 70
0
  0
ENDTAB
  0
TABLE
  2
APPID
  5
9
100
AcDbSymbolTable
 70
1
  0
APPID
  5
12
100
AcDbSymbolTableRecord
100
AcDbRegAppTableRecord
  2
ACAD
 70
0
  0
ENDTAB
  0
TABLE
  2
DIMSTYLE
  5
A
100
AcDbSymbolTable
 70
1
100
AcDbDimStyleTable
 71
0
  0
DIMSTYLE
105
27
100
AcDbSymbolTableRecord
100
AcDbDimStyleTableRecord
  2
Standard
 41
2.5
 42
0.625
 43
3.75
 44
1.25
 70
0
 73
0
 74
0
 77
1
 78
8
140
2.5
141
2.5
143
0.03937007874016
147
0.625
171
3
172
1
271
2
272
2
274
3
278
44
283
0
284
8
340
11
  0
ENDTAB
  0
TABLE
  2
BLOCK_RECORD
  5
1
100
AcDbSymbolTable
 70
1
  0
BLOCK_RECORD
  5
1F
100
AcDbSymbolTableRecord
100
AcDbBlockTableRecord
  2
*Model_Space
340
22
  0
BLOCK_RECORD
  5
1B
100
AcDbSymbolTableRecord
100
AcDbBlockTableRecord
  2
*Paper_Space
340
1E
  0
BLOCK_RECORD
  5
23
100
AcDbSymbolTableRecord
100
AcDbBlockTableRecord
  2
*Paper_Space0
340
26
  0
ENDTAB
  0
ENDSEC
  0
SECTION
  2
BLOCKS
  0
BLOCK
  5
20
100
AcDbEntity
  8
0
100
AcDbBlockBegin
  2
*Model_Space
 70
0
 10
0.0
 20
0.0
 30
0.0
  3
*Model_Space
  1

  0
ENDBLK
  5
21
100
AcDbEntity
  8
0
100
AcDbBlockEnd
  0
BLOCK
  5
1C
100
AcDbEntity
 67
1
  8
0
100
AcDbBlockBegin
  2
*Paper_Space
 70
0
 10
0.0
 20
0.0
 30
0.0
  3
*Paper_Space
  1

  0
ENDBLK
  5
1D
100
AcDbEntity
 67
1
  8
0
100
AcDbBlockEnd
  0
BLOCK
  5
24
100
AcDbEntity
  8
0
100
AcDbBlockBegin
  2
*Paper_Space0
 70
0
 10
0.0
 20
0.0
 30
0.0
  3
*Paper_Space0
  1

  0
ENDBLK
  5
25
100
AcDbEntity
  8
0
100
AcDbBlockEnd
  0
ENDSEC
  0
SECTION
  2
ENTITIES
  0
LINE
  5
47
100
AcDbEntity
100
AcDbLine
  8
0
 62
256
370
-1
  6
ByLayer
 10
240.0
 20
180.0
 30
0.0
 11
200.0
 21
180.0
 31
0.0
  0
LINE
  5
48
100
AcDbEntity
100
AcDbLine
  8
0
 62
256
370
-1
  6
ByLayer
 10
200.0
 20
140.0
 30
0.0
 11
240.0
 21
140.0
 31
0.0
  0
LINE
  5
49
100
AcDbEntity
100
AcDbLine
  8
0
 62
256
370
-1
  6
ByLayer
 10
240.0
 20
140.0
 30
0.0
 11
240.0
 21
100.0
 31
0.0
  0
LINE
  5
4A
100
AcDbEntity
100
AcDbLine
  8
0
 62
256
370
-1
  6
ByLayer
 10
240.0
 20
100.0
 30
0.0
 11
200.0
 21
100.0
 31
0.0
  0
LINE
  5
4B
100
AcDbEntity
100
AcDbLine
  8
0
 62
256
370
-1
  6
ByLayer
 10
200.0
 20
100.0
 30
0.0
 11
200.0
 21
140.0
 31
0.0
  0
LINE
  5
4C
100
AcDbEntity
100
AcDbLine
  8
0
 62
256
370
-1
  6
ByLayer
 10
200.0
 20
240.0
 30
0.0
 11
240.0
 21
240.0
 31
0.0
  0
LINE
  5
4D
100
AcDbEntity
100
AcDbLine
  8
0
 62
256
370
-1
  6
ByLayer
 10
240.0
 20
240.0
 30
0.0
 11
240.0
 21
280.0
 31
0.0
  0
LINE
  5
4E
100
AcDbEntity
100
AcDbLine
  8
0
 62
256
370
-1
  6
ByLayer
 10
240.0
 20
280.0
 30
0.0
 11
200.0
 21
280.0
 31
0.0
  0
LINE
  5
4F
100
AcDbEntity
100
AcDbLine
  8
0
 62
256
370
-1
  6
ByLayer
 10
200.0
 20
280.0
 30
0.0
 11
200.0
 21
240.0
 31
0.0
  0
CIRCLE
  5
50
100
AcDbEntity
100
AcDbCircle
  8
0
 62
256
370
-1
  6
ByLayer
 10
220.0
 20
120.0
 30
0.0
 40
18.0
  0
CIRCLE
  5
51
100
AcDbEntity
100
AcDbCircle
  8
0
 62
256
370
-1
  6
ByLayer
 10
220.0
 20
260.0
 30
0.0
 40
18.0
  0
CIRCLE
  5
52
100
AcDbEntity
100
AcDbCircle
  8
0
 62
256
370
-1
  6
ByLayer
 10
204.0
 20
136.0
 30
0.0
 40
2.1000000000000001
  0
CIRCLE
  5
53
100
AcDbEntity
100
AcDbCircle
  8
0
 62
256
370
-1
  6
ByLayer
 10
236.0
 20
136.0
 30
0.0
 40
2.1000000000000001
  0
CIRCLE
  5
54
100
AcDbEntity
100
AcDbCircle
  8
0
 62
256
370
-1
  6
ByLayer
 10
236.0
 20
104.0
 30
0.0
 40
2.1000000000000001
  0
CIRCLE
  5
55
100
AcDbEntity
100
AcDbCircle
  8
0
 62
256
370
-1
  6
ByLayer
 10
204.0
 20
104.0
 30
0.0
 40
2.1000000000000001
  0
CIRCLE
  5
56
100
AcDbEntity
100
AcDbCircle
  8
0
 62
256
370
-1
  6
ByLayer
 10
204.0
 20
276.0
 30
0.0
 40
2.0
  0
CIRCLE
  5
57
100
AcDbEntity
100
AcDbCircle
  8
0
 62
256
370
-1
  6
ByLayer
 10
236.0
 20
276.0
 30
0.0
 40
2.0
  0
CIRCLE
  5
58
100
AcDbEntity
100
AcDbCircle
  8
0
 62
256
370
-1
  6
ByLayer
 10
236.0
 20
244.0
 30
0.0
 40
2.0
  0
CIRCLE
  5
59
100
AcDbEntity
100
AcDbCircle
  8
0
 62
256
370
-1
  6
ByLayer
 10
204.0
 20
244.0
 30
0.0
 40
2.0
  0
CIRCLE
  5
5A
100
AcDbEntity
100
AcDbCircle
  8
0
 62
256
370
-1
  6
ByLayer
 10
204.0
 20
276.0
 30
0.0
 40
1.6499999999999999
  0
CIRCLE
  5
5B
100
AcDbEntity
100
AcDbCircle
  8
0
 62
256
370
-1
  6
ByLayer
 10
236.0
 20
276.0
 30
0.0
 40
1.6499999999999999
  0
CIRCLE
  5
5C
100
AcDbEntity
100
AcDbCircle
  8
0
 62
256
370
-1
  6
ByLayer
 10
236.0
 20
244.0
 30
0.0
 40
1.6499999999999999
  0
CIRCLE
  5
5D
100
AcDbEntity
100
AcDbCircle
  8
0
 62
256
370
-1
  6
ByLayer
 10
204.0
 20
244.0
 30
0.0
 40
1.6499999999999999
  0
LINE
  5
5E
100
AcDbEntity
100
AcDbLine
  8
center
 62
256
370
-1
  6
ByLayer
 10
220.0
 20
120.0
 30
0.0
 11
220.0
 21
90.0
 31
0.0
  0
LINE
  5
5F
100
AcDbEntity
100
AcDbLine
  8
center
 62
256
370
-1
  6
ByLayer
 10
220.0
 20
120.0
 30
0.0
 11
245.9807621135331601
 21
135.0
 31
0.0
  0
LINE
  5
60
100
AcDbEntity
100
AcDbLine
  8
center
 62
256
370
-1
  6
ByLayer
 10
220.0
 20
120.0
 30
0.0
 11
194.0192378864668399
 21
135.0
 31
0.0
  0
LINE
  5
61
100
AcDbEntity
100
AcDbLine
  8
hidden
 62
256
370
-1
  6
ByLayer
 10
202.0
 20
184.0
 30
0.0
 11
238.0
 21
184.0
 31
0.0
  0
CIRCLE
  5
62
100
AcDbEntity
100
AcDbCircle
  8
0
 62
256
370
-1
  6
ByLayer
 10
220.0
 20
120.0
 30
0.0
 40
6.0
  0
LINE
  5
63
100
AcDbEntity
100
AcDbLine
  8
hidden
 62
256
370
-1
  6
ByLayer
 10
214.0
 20
184.0
 30
0.0
 11
214.0
 21
180.0
 31
0.0
  0
LINE
  5
64
100
AcDbEntity
100
AcDbLine
  8
hidden
 62
256
370
-1
  6
ByLayer
 10
226.0
 20
184.0
 30
0.0
 11
226.0
 21
180.0
 31
0.0
  0
LINE
  5
65
100
AcDbEntity
100
AcDbLine
  8
0
 62
256
370
-1
  6
ByLayer
 10
270.0
 20
185.0
 30
0.0
 11
270.0
 21
179.0
 31
0.0
  0
LINE
  5
66
100
AcDbEntity
100
AcDbLine
  8
0
 62
256
370
-1
  6
ByLayer
 10
262.0
 20
185.0
 30
0.0
 11
262.0
 21
179.0
 31
0.0
  0
LINE
  5
67
100
AcDbEntity
100
AcDbLine
  8
0
 62
256
370
-1
  6
ByLayer
 10
262.0
 20
179.0
 30
0.0
 11
270.0
 21
179.0
 31
0.0
  0
LINE
  5
68
100
AcDbEntity
100
AcDbLine
  8
hidden
 62
256
370
-1
  6
ByLayer
 10
262.0
 20
185.0
 30
0.0
 11
262.0
 21
186.5
 31
0.0
  0
LINE
  5
69
100
AcDbEntity
100
AcDbLine
  8
hidden
 62
256
370
-1
  6
ByLayer
 10
270.0
 20
185.0
 30
0.0
 11
270.0
 21
186.5000000000000284
 31
0.0
  0
LINE
  5
6A
100
AcDbEntity
100
AcDbLine
  8
hidden
 62
256
370
-1
  6
ByLayer
 10
263.5
 20
179.0000000000000284
 30
0.0
 11
263.5
 21
189.0000000000000284
 31
0.0
  0
LINE
  5
6B
100
AcDbEntity
100
AcDbLine
  8
hidden
 62
256
370
-1
  6
ByLayer
 10
268.5
 20
179.0
 30
0.0
 11
268.5
 21
189.0000000000000284
 31
0.0
  0
LINE
  5
6C
100
AcDbEntity
100
AcDbLine
  8
hidden
 62
256
370
-1
  6
ByLayer
 10
263.8999999999999773
 20
179.0
 30
0.0
 11
263.9000000000000341
 21
189.0
 31
0.0
  0
LINE
  5
6D
100
AcDbEntity
100
AcDbLine
  8
hidden
 62
256
370
-1
  6
ByLayer
 10
268.1000000000000227
 20
179.0
 30
0.0
 11
268.1000000000000227
 21
189.0000000000000284
 31
0.0
  0
LINE
  5
6E
100
AcDbEntity
100
AcDbLine
  8
center
 62
256
370
-1
  6
ByLayer
 10
266.0
 20
90.0
 30
0.0
 11
266.0
 21
290.0
 31
0.0
  0
LINE
  5
6F
100
AcDbEntity
100
AcDbLine
  8
center
 62
256
370
-1
  6
ByLayer
 10
220.0
 20
90.0
 30
0.0
 11
220.0
 21
290.0
 31
0.0
  0
LINE
  5
70
100
AcDbEntity
100
AcDbLine
  8
center
 62
256
370
-1
  6
ByLayer
 10
190.0
 20
120.0
 30
0.0
 11
290.0
 21
120.0
 31
0.0
  0
CIRCLE
  5
71
100
AcDbEntity
100
AcDbCircle
  8
0
 62
256
370
-1
  6
ByLayer
 10
266.0
 20
260.0
 30
0.0
 40
4.0
  0
CIRCLE
  5
72
100
AcDbEntity
100
AcDbCircle
  8
0
 62
256
370
-1
  6
ByLayer
 10
266.0
 20
260.0
 30
0.0
 40
2.5
  0
CIRCLE
  5
73
100
AcDbEntity
100
AcDbCircle
  8
0
 62
256
370
-1
  6
ByLayer
 10
266.0
 20
260.0
 30
0.0
 40
2.1000000000000001
  0
LINE
  5
74
100
AcDbEntity
100
AcDbLine
  8
hidden
 62
256
370
-1
  6
ByLayer
 10
304.0
 20
185.0
 30
0.0
 11
304.0
 21
186.5000000000000284
 31
0.0
  0
LINE
  5
75
100
AcDbEntity
100
AcDbLine
  8
hidden
 62
256
370
-1
  6
ByLayer
 10
312.0
 20
185.0
 30
0.0
 11
312.0
 21
186.5000000000000284
 31
0.0
  0
LINE
  5
76
100
AcDbEntity
100
AcDbLine
  8
center
 62
256
370
-1
  6
ByLayer
 10
308.0
 20
90.0
 30
0.0
 11
308.0
 21
290.0
 31
0.0
  0
LINE
  5
77
100
AcDbEntity
100
AcDbLine
  8
center
 62
256
370
-1
  6
ByLayer
 10
190.0
 20
260.0
 30
0.0
 11
360.0
 21
260.0
 31
0.0
  0
CIRCLE
  5
78
100
AcDbEntity
100
AcDbCircle
  8
0
 62
256
370
-1
  6
ByLayer
 10
308.0
 20
260.0
 30
0.0
 40
4.0499999999999998
  0
LINE
  5
79
100
AcDbEntity
100
AcDbLine
  8
0
 62
256
370
-1
  6
ByLayer
 10
200.0
 20
210.0
 30
0.0
 11
240.0
 21
210.0
 31
0.0
  0
LINE
  5
7A
100
AcDbEntity
100
AcDbLine
  8
hidden
 62
256
370
-1
  6
ByLayer
 10
202.0
 20
206.0
 30
0.0
 11
238.0
 21
206.0
 31
0.0
  0
LINE
  5
7B
100
AcDbEntity
100
AcDbLine
  8
0
 62
256
370
-1
  6
ByLayer
 10
200.0
 20
210.0
 30
0.0
 11
200.0
 21
180.0
 31
0.0
  0
LINE
  5
7C
100
AcDbEntity
100
AcDbLine
  8
0
 62
256
370
-1
  6
ByLayer
 10
240.0
 20
210.0
 30
0.0
 11
240.0
 21
180.0
 31
0.0
  0
LINE
  5
7D
100
AcDbEntity
100
AcDbLine
  8
hidden
 62
256
370
-1
  6
ByLayer
 10
202.0
 20
206.0
 30
0.0
 11
202.0
 21
184.0
 31
0.0
  0
LINE
  5
7E
100
AcDbEntity
100
AcDbLine
  8
hidden
 62
256
370
-1
  6
ByLayer
 10
238.0
 20
206.0
 30
0.0
 11
238.0
 21
184.0
 31
0.0
  0
LINE
  5
7F
100
AcDbEntity
100
AcDbLine
  8
center
 62
256
370
-1
  6
ByLayer
 10
190.0
 20
195.0
 30
0.0
 11
245.0
 21
195.0
 31
0.0
  0
LINE
  5
80
100
AcDbEntity
100
AcDbLine
  8
0
 62
256
370
-1
  6
ByLayer
 10
200.0
 20
195.0
 30
0.0
 11
240.0
 21
195.0
 31
0.0
  0
DIMENSION
  5
81
100
AcDbEntity
  8
dimensions
 62
256
370
-1
  6
ByLayer
100
AcDbDimension
 10
240.0
 20
235.0
 30
0.0
 11
220.0
 21
236.875
 31
0.0
 70
0
 71
5
 72
1
 41
1.0
 42
0.0
  1

  3
Standard
100
AcDbAlignedDimension
 13
200.0
 23
240.0
 33
0.0
 14
240.0
 24
240.0
 34
0.0
 50
0.0
100
AcDbRotatedDimension
  0
DIMENSION
  5
82
100
AcDbEntity
  8
dimensions
 62
256
370
-1
  6
ByLayer
100
AcDbDimension
 10
195.0
 20
280.0
 30
0.0
 11
193.125
 21
260.0
 31
0.0
 70
0
 71
5
 72
1
 41
1.0
 42
0.0
  1

  3
Standard
100
AcDbAlignedDimension
 13
200.0
 23
240.0
 33
0.0
 14
200.0
 24
280.0
 34
0.0
 50
90.0
100
AcDbRotatedDimension
  0
DIMENSION
  5
83
100
AcDbEntity
  8
dimensions
 62
256
370
-1
  6
ByLayer
100
AcDbDimension
 10
195.0
 20
195.0
 30
0.0
 11
193.125
 21
202.5
 31
0.0
 70
0
 71
5
 72
1
 41
1.0
 42
0.0
  1

  3
Standard
100
AcDbAlignedDimension
 13
200.0
 23
210.0
 33
0.0
 14
200.0
 24
195.0
 34
0.0
 50
90.0
100
AcDbRotatedDimension
  0
DIMENSION
  5
84
100
AcDbEntity
  8
dimensions
 62
256
370
-1
  6
ByLayer
100
AcDbDimension
 10
195.0
 20
180.0
 30
0.0
 11
193.125
 21
187.5
 31
0.0
 70
0
 71
5
 72
1
 41
1.0
 42
0.0
  1

  3
Standard
100
AcDbAlignedDimension
 13
200.0
 23
195.0
 33
0.0
 14
200.0
 24
180.0
 34
0.0
 50
90.0
100
AcDbRotatedDimension
  0
DIMENSION
  5
85
100
AcDbEntity
  8
dimensions
 62
256
370
-1
  6
ByLayer
100
AcDbDimension
 10
223.8411063979868914
 20
124.6093276775842469
 30
0.0
 11
218.55958510075493
 21
121.2003457493708964
 31
0.0
 70
3
 71
5
 72
0
 41
1.0
 42
0.0
  1

  3
Standard
100
AcDbDiametricDimension
 15
216.1588936020131086
 25
115.3906723224157531
 35
0.0
 40
0.0
  0
DIMENSION
  5
86
100
AcDbEntity
  8
dimensions
 62
256
370
-1
  6
ByLayer
100
AcDbDimension
 10
232.7279220613578445
 20
272.7279220613578445
 30
0.0
 11
218.6741747852752269
 21
261.3258252147247731
 31
0.0
 70
3
 71
5
 72
1
 41
1.0
 42
0.0
  1

  3
Standard
100
AcDbDiametricDimension
 15
207.2720779386421555
 25
247.2720779386421555
 35
0.0
 40
0.0
  0
DIMENSION
  5
87
100
AcDbEntity
  8
dimensions
 62
256
370
-1
  6
ByLayer
100
AcDbDimension
 10
246.0
 20
184.0
 30
0.0
 11
244.125
 21
189.5
 31
0.0
 70
0
 71
5
 72
1
 41
1.0
 42
0.0
  1

  3
Standard
100
AcDbAlignedDimension
 13
238.0
 23
195.0
 33
0.0
 14
238.0
 24
184.0
 34
0.0
 50
90.0
100
AcDbRotatedDimension
  0
DIMENSION
  5
88
100
AcDbEntity
  8
dimensions
 62
256
370
-1
  6
ByLayer
100
AcDbDimension
 10
220.0
 20
285.0
 30
0.0
 11
212.0
 21
286.875
 31
0.0
 70
0
 71
5
 72
0
 41
1.0
 42
0.0
  1

  3
Standard
100
AcDbAlignedDimension
 13
204.0
 23
276.0
 33
0.0
 14
220.0
 24
280.0
 34
0.0
 50
0.0
100
AcDbRotatedDimension
  0
CIRCLE
  5
89
100
AcDbEntity
100
AcDbCircle
  8
0
 62
256
370
-1
  6
ByLayer
 10
230.392304845413264
 20
126.0
 30
0.0
 40
1.5
  0
CIRCLE
  5
8A
100
AcDbEntity
100
AcDbCircle
  8
0
 62
256
370
-1
  6
ByLayer
 10
209.607695154586736
 20
126.0
 30
0.0
 40
1.5
  0
CIRCLE
  5
8B
100
AcDbEntity
100
AcDbCircle
  8
0
 62
256
370
-1
  6
ByLayer
 10
220.0
 20
108.0
 30
0.0
 40
1.5
  0
CIRCLE
  5
8C
100
AcDbEntity
100
AcDbCircle
  8
0
 62
256
370
-1
  6
ByLayer
 10
209.607695154586736
 20
126.0
 30
0.0
 40
1.25
  0
CIRCLE
  5
8D
100
AcDbEntity
100
AcDbCircle
  8
0
 62
256
370
-1
  6
ByLayer
 10
230.392304845413264
 20
126.0
 30
0.0
 40
1.25
  0
CIRCLE
  5
8E
100
AcDbEntity
100
AcDbCircle
  8
0
 62
256
370
-1
  6
ByLayer
 10
220.0
 20
108.0
 30
0.0
 40
1.25
  0
CIRCLE
  5
8F
100
AcDbEntity
100
AcDbCircle
  8
ghost
 62
256
370
-1
  6
ByLayer
 10
209.607695154586736
 20
126.0
 30
0.0
 40
4.0
  0
CIRCLE
  5
90
100
AcDbEntity
100
AcDbCircle
  8
ghost
 62
256
370
-1
  6
ByLayer
 10
230.392304845413264
 20
126.0
 30
0.0
 40
4.0
  0
CIRCLE
  5
91
100
AcDbEntity
100
AcDbCircle
  8
ghost
 62
256
370
-1
  6
ByLayer
 10
220.0
 20
108.0
 30
0.0
 40
4.0
  0
DIMENSION
  5
92
100
AcDbEntity
  8
dimensions
 62
256
370
-1
  6
ByLayer
100
AcDbDimension
 10
226.74519052838329
 20
132.3169872981077901
 30
0.0
 11
220.611538105676658
 21
130.9407849302036198
 31
0.0
 70
1
 71
5
 72
0
 41
1.0
 42
0.0
  1

  3
Standard
100
AcDbAlignedDimension
 13
220.0
 23
120.0
 33
0.0
 14
230.392304845413264
 24
126.0
 34
0.0
  0
DIMENSION
  5
93
100
AcDbEntity
  8
dimensions
 62
256
370
-1
  6
ByLayer
100
AcDbDimension
 10
230.392304845413264
 20
113.0
 30
0.0
 11
225.196152422706632
 21
114.875
 31
0.0
 70
0
 71
5
 72
0
 41
1.0
 42
0.0
  1

  3
Standard
100
AcDbAlignedDimension
 13
220.0
 23
120.0
 33
0.0
 14
230.392304845413264
 24
126.0
 34
0.0
 50
0.0
100
AcDbRotatedDimension
  0
DIMENSION
  5
94
100
AcDbEntity
  8
dimensions
 62
256
370
-1
  6
ByLayer
100
AcDbDimension
 10
207.0
 20
126.0
 30
0.0
 11
205.125
 21
123.0
 31
0.0
 70
0
 71
5
 72
0
 41
1.0
 42
0.0
  1

  3
Standard
100
AcDbAlignedDimension
 13
220.0
 23
120.0
 33
0.0
 14
209.607695154586736
 24
126.0
 34
0.0
 50
90.0
100
AcDbRotatedDimension
  0
DIMENSION
  5
95
100
AcDbEntity
  8
dimensions
 62
256
370
-1
  6
ByLayer
100
AcDbDimension
 10
234.8905996075495466
 20
242.3358994113243057
 30
0.0
 11
234.4399056981165472
 21
245.0400628679223018
 31
0.0
 70
3
 71
5
 72
0
 41
1.0
 42
0.0
  1
\~\~\~M4
  3
Standard
100
AcDbDiametricDimension
 15
237.1094003924504534
 25
245.6641005886756943
 35
0.0
 40
0.0
  0
LINE
  5
96
100
AcDbEntity
100
AcDbLine
  8
0
 62
256
370
-1
  6
ByLayer
 10
282.5
 20
189.0000000000000284
 30
0.0
 11
282.5
 21
186.5000000000000284
 31
0.0
  0
LINE
  5
97
100
AcDbEntity
100
AcDbLine
  8
0
 62
256
370
-1
  6
ByLayer
 10
249.5000000000000284
 20
189.0
 30
0.0
 11
249.5000000000000284
 21
186.5
 31
0.0
  0
LINE
  5
98
100
AcDbEntity
100
AcDbLine
  8
0
 62
256
370
-1
  6
ByLayer
 10
249.5000000000000284
 20
189.0
 30
0.0
 11
282.5
 21
189.0
 31
0.0
  0
LINE
  5
99
100
AcDbEntity
100
AcDbLine
  8
0
 62
256
370
-1
  6
ByLayer
 10
249.5000000000000284
 20
186.5
 30
0.0
 11
282.5
 21
186.5000000000000284
 31
0.0
  0
LINE
  5
9A
100
AcDbEntity
100
AcDbLine
  8
ghost
 62
256
370
-1
  6
ByLayer
 10
249.5000000000000284
 20
186.5
 30
0.0
 11
249.5000000000000284
 21
185.0000000000000284
 31
0.0
  0
LINE
  5
9B
100
AcDbEntity
100
AcDbLine
  8
ghost
 62
256
370
-1
  6
ByLayer
 10
282.5
 20
186.5000000000000284
 30
0.0
 11
282.5
 21
185.0000000000000284
 31
0.0
  0
LINE
  5
9C
100
AcDbEntity
100
AcDbLine
  8
ghost
 62
256
370
-1
  6
ByLayer
 10
249.5000000000000284
 20
185.0
 30
0.0
 11
282.5
 21
185.0
 31
0.0
  0
DIMENSION
  5
9D
100
AcDbEntity
  8
dimensions
 62
256
370
-1
  6
ByLayer
100
AcDbDimension
 10
282.5
 20
195.0
 30
0.0
 11
266.0
 21
196.875
 31
0.0
 70
0
 71
5
 72
1
 41
1.0
 42
0.0
  1
%%c<>
  3
Standard
100
AcDbAlignedDimension
 13
249.5000000000000284
 23
189.0
 33
0.0
 14
282.5
 24
189.0000000000000284
 34
0.0
 50
0.0
100
AcDbRotatedDimension
  0
DIMENSION
  5
9E
100
AcDbEntity
  8
dimensions
 62
256
370
-1
  6
ByLayer
100
AcDbDimension
 10
270.0
 20
166.0
 30
0.0
 11
266.0
 21
167.875
 31
0.0
 70
0
 71
5
 72
1
 41
1.0
 42
0.0
  1
%%c<>
  3
Standard
100
AcDbAlignedDimension
 13
262.0
 23
179.0
 33
0.0
 14
270.0
 24
179.0
 34
0.0
 50
0.0
100
AcDbRotatedDimension
  0
DIMENSION
  5
9F
100
AcDbEntity
  8
dimensions
 62
256
370
-1
  6
ByLayer
100
AcDbDimension
 10
268.5
 20
173.0
 30
0.0
 11
266.0
 21
174.875
 31
0.0
 70
0
 71
5
 72
1
 41
1.0
 42
0.0
  1
\~\~\~\~M5
  3
Standard
100
AcDbAlignedDimension
 13
263.5
 23
179.0000000000000284
 33
0.0
 14
268.5
 24
179.0
 34
0.0
 50
0.0
100
AcDbRotatedDimension
  0
DIMENSION
  5
A0
100
AcDbEntity
  8
dimensions
 62
256
370
-1
  6
ByLayer
100
AcDbDimension
 10
289.0
 20
179.0
 30
0.0
 11
287.125
 21
184.0
 31
0.0
 70
0
 71
5
 72
1
 41
1.0
 42
0.0
  1

  3
Standard
100
AcDbAlignedDimension
 13
282.5
 23
189.0
 33
0.0
 14
270.0
 24
179.0
 34
0.0
 50
90.0
100
AcDbRotatedDimension
  0
DIMENSION
  5
A1
100
AcDbEntity
  8
dimensions
 62
256
370
-1
  6
ByLayer
100
AcDbDimension
 10
281.0
 20
179.0
 30
0.0
 11
279.125
 21
182.75
 31
0.0
 70
0
 71
5
 72
1
 41
1.0
 42
0.0
  1

  3
Standard
100
AcDbAlignedDimension
 13
282.5
 23
186.5000000000000284
 33
0.0
 14
270.0
 24
179.0
 34
0.0
 50
90.0
100
AcDbRotatedDimension
  0
CIRCLE
  5
A2
100
AcDbEntity
100
AcDbCircle
  8
0
 62
256
370
-1
  6
ByLayer
 10
266.0
 20
260.0
 30
0.0
 40
16.5
  0
CIRCLE
  5
A3
100
AcDbEntity
100
AcDbCircle
  8
0
 62
256
370
-1
  6
ByLayer
 10
308.0
 20
260.0
 30
0.0
 40
16.5
  0
LINE
  5
A4
100
AcDbEntity
100
AcDbLine
  8
0
 62
256
370
-1
  6
ByLayer
 10
291.5
 20
186.5
 30
0.0
 11
291.5
 21
185.0
 31
0.0
  0
LINE
  5
A5
100
AcDbEntity
100
AcDbLine
  8
0
 62
256
370
-1
  6
ByLayer
 10
324.5
 20
186.5
 30
0.0
 11
324.5
 21
185.0
 31
0.0
  0
LINE
  5
A6
100
AcDbEntity
100
AcDbLine
  8
0
 62
256
370
-1
  6
ByLayer
 10
324.5
 20
186.5
 30
0.0
 11
291.5
 21
186.5
 31
0.0
  0
LINE
  5
A7
100
AcDbEntity
100
AcDbLine
  8
hidden
 62
256
370
-1
  6
ByLayer
 10
291.5
 20
185.4000000000000057
 30
0.0
 11
324.5
 21
185.4000000000000057
 31
0.0
  0
LINE
  5
A8
100
AcDbEntity
100
AcDbLine
  8
0
 62
256
370
-1
  6
ByLayer
 10
291.5
 20
185.0
 30
0.0
 11
324.5
 21
185.0
 31
0.0
  0
CIRCLE
  5
A9
100
AcDbEntity
100
AcDbCircle
  8
center
 62
256
370
-1
  6
ByLayer
 10
308.0
 20
260.0
 30
0.0
 40
12.0
  0
CIRCLE
  5
AA
100
AcDbEntity
100
AcDbCircle
  8
0
 62
256
370
-1
  6
ByLayer
 10
308.0
 20
272.0
 30
0.0
 40
1.5
  0
CIRCLE
  5
AB
100
AcDbEntity
100
AcDbCircle
  8
0
 62
256
370
-1
  6
ByLayer
 10
297.607695154586736
 20
254.0
 30
0.0
 40
1.5
  0
CIRCLE
  5
AC
100
AcDbEntity
100
AcDbCircle
  8
0
 62
256
370
-1
  6
ByLayer
 10
318.392304845413264
 20
254.0
 30
0.0
 40
1.5
  0
LINE
  5
AD
100
AcDbEntity
100
AcDbLine
  8
0
 62
256
370
-1
  6
ByLayer
 10
309.1999999999999886
 20
243.5436942177170181
 30
0.0
 11
309.1999999999999886
 21
256.1318609125316925
 31
0.0
  0
LINE
  5
AE
100
AcDbEntity
100
AcDbLine
  8
0
 62
256
370
-1
  6
ByLayer
 10
306.8000000000000114
 20
243.5436942177170181
 30
0.0
 11
306.8000000000000114
 21
256.1318609125316925
 31
0.0
  0
LINE
  5
AF
100
AcDbEntity
100
AcDbLine
  8
0
 62
256
370
-1
  6
ByLayer
 10
305.2500932848809043
 20
262.973300028275446
 30
0.0
 11
294.3484211400981962
 21
269.2673833756828117
 31
0.0
  0
LINE
  5
B0
100
AcDbEntity
100
AcDbLine
  8
0
 62
256
370
-1
  6
ByLayer
 10
304.0500932848809157
 20
260.8948390591928614
 30
0.0
 11
293.1484211400982076
 21
267.1889224066002271
 31
0.0
  0
LINE
  5
B1
100
AcDbEntity
100
AcDbLine
  8
0
 62
256
370
-1
  6
ByLayer
 10
310.7499067151190957
 20
262.973300028275446
 30
0.0
 11
321.6515788599018038
 21
269.2673833756828117
 31
0.0
  0
LINE
  5
B2
100
AcDbEntity
100
AcDbLine
  8
0
 62
256
370
-1
  6
ByLayer
 10
311.9499067151190843
 20
260.8948390591928614
 30
0.0
 11
322.8515788599017924
 21
267.1889224066002271
 31
0.0
  0
DIMENSION
  5
B3
100
AcDbEntity
  8
dimensions
 62
256
370
-1
  6
ByLayer
100
AcDbDimension
 10
309.1999999999999886
 20
237.0
 30
0.0
 11
308.0
 21
238.875
 31
0.0
 70
0
 71
5
 72
1
 41
1.0
 42
0.0
  1

  3
Standard
100
AcDbAlignedDimension
 13
306.8000000000000114
 23
243.5436942177170181
 33
0.0
 14
309.1999999999999886
 24
243.5436942177170181
 34
0.0
 50
0.0
100
AcDbRotatedDimension
  0
LINE
  5
B4
100
AcDbEntity
100
AcDbLine
  8
center
 62
256
370
-1
  6
ByLayer
 10
323.1554445662276862
 20
268.75
 30
0.0
 11
292.8445554337723138
 21
251.25
 31
0.0
  0
LINE
  5
B5
100
AcDbEntity
100
AcDbLine
  8
center
 62
256
370
-1
  6
ByLayer
 10
292.8445554337723138
 20
268.75
 30
0.0
 11
323.1554445662276862
 21
251.25
 31
0.0
  0
DIMENSION
  5
B6
100
AcDbEntity
  8
dimensions
 62
256
370
-1
  6
ByLayer
100
AcDbDimension
 10
333.0
 20
268.75
 30
0.0
 11
331.125
 21
264.375
 31
0.0
 70
0
 71
5
 72
1
 41
1.0
 42
0.0
  1

  3
Standard
100
AcDbAlignedDimension
 13
308.0
 23
260.0
 33
0.0
 14
323.1554445662276862
 24
268.75
 34
0.0
 50
90.0
100
AcDbRotatedDimension
  0
DIMENSION
  5
B7
100
AcDbEntity
  8
dimensions
 62
256
370
-1
  6
ByLayer
100
AcDbDimension
 10
323.1554445662276862
 20
283.0
 30
0.0
 11
315.5777222831138715
 21
284.875
 31
0.0
 70
0
 71
5
 72
1
 41
1.0
 42
0.0
  1

  3
Standard
100
AcDbAlignedDimension
 13
308.0
 23
260.0
 33
0.0
 14
323.1554445662276862
 24
268.75
 34
0.0
 50
0.0
100
AcDbRotatedDimension
  0
DIMENSION
  5
B8
100
AcDbEntity
  8
dimensions
 62
256
370
-1
  6
ByLayer
100
AcDbDimension
 10
303.9499999999999886
 20
260.0
 30
0.0
 11
308.0
 21
261.875
 31
0.0
 70
3
 71
5
 72
1
 41
1.0
 42
0.0
  1

  3
Standard
100
AcDbDiametricDimension
 15
312.0500000000000114
 25
260.0
 35
0.0
 40
0.0
  0
CIRCLE
  5
B9
100
AcDbEntity
100
AcDbCircle
  8
0
 62
256
370
-1
  6
ByLayer
 10
380.0
 20
250.0
 30
0.0
 40
4.0
  0
LINE
  5
BA
100
AcDbEntity
100
AcDbLine
  8
center
 62
256
370
-1
  6
ByLayer
 10
380.0
 20
261.0
 30
0.0
 11
380.0
 21
239.0
 31
0.0
  0
LINE
  5
BB
100
AcDbEntity
100
AcDbLine
  8
center
 62
256
370
-1
  6
ByLayer
 10
378.8000000000000114
 20
261.0
 30
0.0
 11
378.8000000000000114
 21
239.0
 31
0.0
  0
LINE
  5
BC
100
AcDbEntity
100
AcDbLine
  8
center
 62
256
370
-1
  6
ByLayer
 10
381.1999999999999886
 20
261.0
 30
0.0
 11
381.1999999999999886
 21
239.0
 31
0.0
  0
LINE
  5
BD
100
AcDbEntity
100
AcDbLine
  8
0
 62
256
370
-1
  6
ByLayer
 10
373.8000000000000114
 20
253.8157568056677746
 30
0.0
 11
383.8000000000000114
 21
253.8157568056677746
 31
0.0
  0
DIMENSION
  5
BE
100
AcDbEntity
  8
dimensions
 62
256
370
-1
  6
ByLayer
100
AcDbDimension
 10
318.392304845413264
 20
242.0
 30
0.0
 11
313.196152422706632
 21
243.875
 31
0.0
 70
0
 71
5
 72
1
 41
1.0
 42
0.0
  1

  3
Standard
100
AcDbAlignedDimension
 13
308.0
 23
260.0
 33
0.0
 14
318.392304845413264
 24
254.0
 34
0.0
 50
0.0
100
AcDbRotatedDimension
  0
DIMENSION
  5
BF
100
AcDbEntity
  8
dimensions
 62
256
370
-1
  6
ByLayer
100
AcDbDimension
 10
333.0
 20
254.0
 30
0.0
 11
331.125
 21
257.0
 31
0.0
 70
0
 71
5
 72
1
 41
1.0
 42
0.0
  1

  3
Standard
100
AcDbAlignedDimension
 13
308.0
 23
260.0
 33
0.0
 14
318.392304845413264
 24
254.0
 34
0.0
 50
90.0
100
AcDbRotatedDimension
  0
ENDSEC
  0
SECTION
  2
OBJECTS
  0
DICTIONARY
  5
C
100
AcDbDictionary
280
0
281
1
  3
ACAD_GROUP
350
D
  3
ACAD_LAYOUT
350
1A
  3
ACAD_MLINESTYLE
350
17
  3
ACAD_PLOTSETTINGS
350
19
  3
ACAD_PLOTSTYLENAME
350
E
  3
AcDbVariableDictionary
350
C0
  0
DICTIONARY
  5
D
100
AcDbDictionary
280
0
281
1
  0
ACDBDICTIONARYWDFLT
  5
E
100
AcDbDictionary
281
1
  3
Normal
350
F
100
AcDbDictionaryWithDefault
340
F
  0
ACDBPLACEHOLDER
  5
F
  0
DICTIONARY
  5
17
100
AcDbDictionary
280
0
281
1
  3
Standard
350
18
  0
MLINESTYLE
  5
18
100
AcDbMlineStyle
  2
STANDARD
 70
0
  3

 62
256
 51
90.0
 52
90.0
 71
2
 49
0.5
 62
256
  6
BYLAYER
 49
-0.5
 62
256
  6
BYLAYER
  0
DICTIONARY
  5
19
100
AcDbDictionary
280
0
281
1
  0
DICTIONARY
  5
1A
100
AcDbDictionary
281
1
  3
Layout1
350
1E
  3
Layout2
350
26
  3
Model
350
22
  0
LAYOUT
  5
1E
100
AcDbPlotSettings
  1

  2
C:\Program Files\AutoCAD 2002\plotters\DWF ePlot (optimized for plotting).pc3
  4

  6

 40
0.0
 41
0.0
 42
0.0
 43
0.0
 44
0.0
 45
0.0
 46
0.0
 47
0.0
 48
0.0
 49
0.0
140
0.0
141
0.0
142
1.0
143
1.0
 70
688
 72
0
 73
0
 74
5
  7

 75
16
147
1.0
148
0.0
149
0.0
100
AcDbLayout
  1
Layout1
 70
1
 71
1
 10
0.0
 20
0.0
 11
420.0
 21
297.0
 12
0.0
 22
0.0
 32
0.0
 14
100000000000000000000.0
 24
100000000000000000000.0
 34
100000000000000000000.0
 15
-100000000000000000000.0
 25
-100000000000000000000.0
 35
-100000000000000000000.0
146
0.0
 13
0.0
 23
0.0
 33
0.0
 16
1.0
 26
0.0
 36
0.0
 17
0.0
 27
1.0
 37
0.0
 76
0
330
1B
  0
LAYOUT
  5
22
100
AcDbPlotSettings
  1

  2
C:\Program Files\AutoCAD 2002\plotters\DWF ePlot (optimized for plotting).pc3
  4

  6

 40
0.0
 41
0.0
 42
0.0
 43
0.0
 44
0.0
 45
0.0
 46
0.0
 47
0.0
 48
0.0
 49
0.0
140
0.0
141
0.0
142
1.0
143
1.0
 70
1712
 72
0
 73
0
 74
0
  7

 75
0
147
1.0
148
0.0
149
0.0
100
AcDbLayout
  1
Model
 70
1
 71
0
 10
0.0
 20
0.0
 11
12.0
 21
9.0
 12
0.0
 22
0.0
 32
0.0
 14
0.0
 24
0.0
 34
0.0
 15
0.0
 25
0.0
 35
0.0
146
0.0
 13
0.0
 23
0.0
 33
0.0
 16
1.0
 26
0.0
 36
0.0
 17
0.0
 27
1.0
 37
0.0
 76
0
330
1F
  0
LAYOUT
  5
26
100
AcDbPlotSettings
  1

  2
C:\Program Files\AutoCAD 2002\plotters\DWF ePlot (optimized for plotting).pc3
  4

  6

 40
0.0
 41
0.0
 42
0.0
 43
0.0
 44
0.0
 45
0.0
 46
0.0
 47
0.0
 48
0.0
 49
0.0
140
0.0
141
0.0
142
1.0
143
1.0
 70
688
 72
0
 73
0
 74
5
  7

 75
16
147
1.0
148
0.0
149
0.0
100
AcDbLayout
  1
Layout2
 70
1
 71
2
 10
0.0
 20
0.0
 11
12.0
 21
9.0
 12
0.0
 22
0.0
 32
0.0
 14
0.0
 24
0.0
 34
0.0
 15
0.0
 25
0.0
 35
0.0
146
0.0
 13
0.0
 23
0.0
 33
0.0
 16
1.0
 26
0.0
 36
0.0
 17
0.0
 27
1.0
 37
0.0
 76
0
330
23
  0
DICTIONARY
  5
C0
100
AcDbDictionary
281
1
  3
DIMASSOC
350
C2
  3
HIDETEXT
350
C1
  0
DICTIONARYVAR
  5
C1
100
DictionaryVariables
280
0
  1
2
  0
DICTIONARYVAR
  5
C2
100
DictionaryVariables
280
0
  1
1
  0
ENDSEC
  0
EOF
